Skip to main content

Shakedown Live at Camp Kee-Wamee on 2013-09-15

Audio Preview

etree
Shakedown Live at Camp Kee-Wamee on 2013-09-15


Topics Wormfest 2013


Shakedown
2013-09-15
Wormtown Music Festival
Camp KeeWanee
Greenfield, MA
Vernville Stage

BSC1 (hypers) > FR-2LE [BA TMod] (24/48)
CF Card > Sound Forge Pro 10.0 (fades, Normalize, resample iZotope 64-Bit SRC, dither iZotope MBIT+ Dither) > CD Wav (tracking) > TLH > Flac (level 8)
DFC/DIN/8' high
Tags added in Foobar2000

Taped and Transferred by Brian V.

Set 1

01. How Sweet It Is (To Be Loved By You)
02. Mississippi Half-Step Uptown Toodeloo >
03. Bird Song
04. Help On The Way >
05. Slipknot >
06. Throwing Stones
07. Deal
08. Samson & Delilah
09. banter
10. Shakedown Street
11. Gloria

Set 2

01. Viola Lee Blues
02. Estimated Prophet >
03. Eyes of The World >
04. Foolish Heart >
05. Franklin's Tower


Collection ShakedownBand
Band/Artist Shakedown
Venue Camp Kee-Wamee
Location Greenfield, MA

Source BSC1 (hypers) > FR-2LE [BA TMod] (24/48)
Lineage CF Card > Sound Forge Pro 10.0 (fades, Normalize, resample iZotope 64-Bit SRC, dither iZotope MBIT+ Dither) > CD Wav (tracking) > TLH > Flac (level 8)
Taped by Brian V.
Transferred by Brian V.

Notes

Thanks to everyone that put Wormtown Music Festival together and for the tapers spot.
***Support Bands That Allow Taping/Trading***

shntool output
length expanded size cdr WAVE problems fmt ratio filename
6:51.49 72615692 B --- -- ---xx flac 0.5244 shakedown2013-09-15s1t01.flac
9:35.13 101460620 B --- -- ---xx flac 0.5540 shakedown2013-09-15s1t02.flac
10:25.27 110313548 B --- -- ---xx flac 0.5311 shakedown2013-09-15s1t03.flac
4:34.70 48498284 B --- -- ---xx flac 0.5732 shakedown2013-09-15s1t04.flac
5:06.40 54072524 B --- -- ---xx flac 0.5691 shakedown2013-09-15s1t05.flac
12:12.70 129289484 B --- -- ---xx flac 0.5525 shakedown2013-09-15s1t06.flac
6:44.13 71296220 B --- -- ---xx flac 0.5595 shakedown2013-09-15s1t07.flac
8:08.46 86191436 B --- -- ---xx flac 0.5810 shakedown2013-09-15s1t08.flac
1:22.41 14561276 B --- -- ---xx flac 0.4293 shakedown2013-09-15s1t09.flac
11:40.00 123480044 B --- -- ---xx flac 0.5746 shakedown2013-09-15s1t10.flac
7:37.17 80654828 B --- -- ---xx flac 0.5463 shakedown2013-09-15s1t11.flac
8:23.56 88860956 B --- -- ---xx flac 0.5538 shakedown2013-09-15s2t01.flac
8:47.25 93021644 B --- -- ---xx flac 0.5568 shakedown2013-09-15s2t02.flac
19:18.00 204271244 B --- -- ---xx flac 0.5584 shakedown2013-09-15s2t03.flac
7:40.37 81231068 B --- -- ---xx flac 0.5750 shakedown2013-09-15s2t04.flac
8:11.56 86744156 B --- -- ---xx flac 0.5546 shakedown2013-09-15s2t05.flac
136:40.35 1446563024 B 0.5558 (16 files)

comment
Reviews

There are no reviews yet. Be the first one to write a review.
DOWNLOAD OPTIONS
In Collection
Shakedown
In Collection
Live Music Archive
Uploaded by
Brian V.
on 12/5/2013
Views
118
SIMILAR ITEMS (based on metadata)
Shakedown
by Shakedown
etree
eye 74
favorite 0
comment 0
Source: BSC1 (hypers) > FR-2LE [BA TMod] (24/48)
Shakedown
by Shakedown
etree
eye 54
favorite 0
comment 0
Source: DPA 4011 > V3 Digital + SBD > DR680 (24/48)
Shakedown
by Shakedown
etree
eye 47
favorite 0
comment 0
Source: DPA 4011 > V3 Digital + SBD > DR680 (24/48)
Shakedown
etree
eye 77
favorite 0
comment 0
Source: AKG 393> mini-me> + SB R-44
Shakedown
etree
eye 37
favorite 0
comment 0
Source: source1: akg 461 > Lunatec V2 > Edirol R-44 > WAV (24/48k), source2: sbd > Edirol R-09HR > WAV (24/48k)
Shakedown
etree
eye 55
favorite 1
comment 0
Source: akg391>R44 + sbd>R44 @ 2444
Shakedown
etree
eye 77
favorite 0
comment 0
Source: DPA 4011 > V3 Digital + SBD > R44 (24/48)
Shakedown
etree
eye 38
favorite 0
comment 0
Source: source1: akg 481 > Lunatec V2 > Edirol R-44 > WAV (24/48k), source2: sbd > Edirol R-44 > WAV (24/48k)
Shakedown
by Shakedown
etree
eye 24
favorite 1
comment 0
Source: akg461> Naiant midbox + sbd>R44
Shakedown
etree
eye 91
favorite 1
comment 0
Source: akg461>V2>DR680 + sbd>DR680@2448